Ayuda para poder reproducir este MKV

Ir abajo

Ayuda para poder reproducir este MKV

Mensaje  Poti el Dom Sep 09, 2012 9:53 pm

Hola, puede que sea una tonteria, pero se me escapa de mis manos.
Tengo varios videos en mkv y los he podido ver todos con este pedazo reproductor, que lo es mas gracias a vosotros, con sus modificaciones de firmware.
Pero el otro dia me dejaron un backup de seguridad de una pelicula en blue ray, en formato MKV y al intentar reproducirlo me dice que el formato no es compatible y me pregunta si quiero reproducirlo de todas maneras. Le digo que si y lo reproduce con buen sonido pero la imagen se ve bien unos segundos, luego se ven artefactos, luego otra vez bien y asi toda la pelicula.
He buscado en el foro y he visto otras consultas parecidas y sus soluciones, pero yo las he hecho y no me funciona.
Como os digo es el unico mkv que no he podido ver, tanpoco es que haya visto mucho.
Los que he visto son 1280x720 con l4.1 y l5.1, mkvmerge 2.3.0, 2.6.0, 3.2.0 y 16/9 24 bits, 25.000 fps, 50.000 fps y 29970 fps.
Los datos del que no puedo ver bien son estos:


General
Complete name : C:\Temp\The Bank Job_BDrip_1080p x 264_Dolby Digital_Es-En.mkv
Format : Matroska
File size : 8.45 GiB
Duration : 1h 52mn
Overall bit rate : 10.8 Mbps
Encoded date : UTC 2012-07-06 00:44:39
Writing application : mkvmerge v5.5.0 ('Healer') built on Apr 6 2012 21:43:24
Writing library : libebml v1.2.3 + libmatroska v1.3.0
Cover : Yes / Yes / Yes

Video
ID : 1
Format : AVC
Format/Info : Advanced Video Codec
Format profile : High@L5.1
Format settings, CABAC : Yes
Format settings, ReFrames : 16 frames
Muxing mode : Container profile=Unknown@5.1
Codec ID : V_MPEG4/ISO/AVC
Duration : 1h 51mn
Bit rate : 8 367 Kbps
Nominal bit rate : 8 580 Kbps
Width : 1 920 pixels
Height : 816 pixels
Display aspect ratio : 2.35
Frame rate : 23.976 fps
Resolution : 24 bits
Colorimetry : 4:2:0
Scan type : Progressive
Bits/(Pixel*Frame) : 0.223
Stream size : 6.54 GiB (77%)
Writing library : x264 core 60 r877M c74a8e2
Encoding settings : cabac=1 / ref=16 / deblock=1:-3:-3 / analyse=0x3:0x133 / me=umh / subme=7 / me-prepass=0 / brdo=1 / mixed_ref=1 / me_range=45 / chroma_me=1 / trellis=0 / 8x8dct=1 / cqm=2 / deadzone=8,8 / chroma_qp_offset=0 / threads=6 / nr=0 / decimate=1 / mbaff=0 / fgo=8 / bframes=16 / b_pyramid=1 / b_adapt=1 / b_bias=0 / direct=3 / wpredb=1 / bime=1 / keyint=250 / keyint_min=25 / scenecut=40(pre) / rc=2pass / bitrate=8580 / ratetol=1.0 / rceq='blurCplx^(1-qComp)' / qcomp=1.00 / qpmin=10 / qpmax=51 / qpstep=4 / cplxblur=20.0 / qblur=0.5 / ip_ratio=1.40 / pb_ratio=1.16 / aq=2:0.80

Audio #1
ID : 2
Format : AC-3
Format/Info : Audio Coding 3
Codec ID : A_AC3
Duration : 1h 52mn
Bit rate mode : Constant
Bit rate : 256 Kbps
Channel(s) : 2 channels
Channel positions : L R
Sampling rate : 48.0 KHz
Stream size : 205 MiB (2%)
Language : Spanish

Audio #2
ID : 3
Format : DTS
Format/Info : Digital Theater Systems
Codec ID : A_DTS
Duration : 1h 52mn
Bit rate mode : Constant
Bit rate : 1 510 Kbps
Channel(s) : 6 channels
Channel positions : Front: L C R, Surround: L R, LFE
Sampling rate : 48.0 KHz
Resolution : 24 bits
Stream size : 1.18 GiB (14%)

Audio #3
ID : 4
Format : AC-3
Format/Info : Audio Coding 3
Codec ID : A_AC3
Duration : 1h 52mn
Bit rate mode : Constant
Bit rate : 448 Kbps
Channel(s) : 6 channels
Channel positions : Front: L C R, Surround: L R, LFE
Sampling rate : 48.0 KHz
Stream size : 359 MiB (4%)

Text #1
ID : 5
Format : UTF-8
Codec ID : S_TEXT/UTF8
Codec ID/Info : UTF-8 Plain Text
Language : Spanish

Text #2
ID : 6
Format : ASS
Codec ID : S_TEXT/ASS
Codec ID/Info : Advanced Sub Station Alpha


Greeis que puede ser por el Display aspect ratio de 2:35 o por ser 1920x1088.
Como os he dicho he probado todo lo que comentais por aqui, desmultiplexsar sin comprimir cabera datos, he probado el mkvmerge 2.9.8, 3.6.0, 4.6.0 y el ultimo 5.5 y tambien poniendo los idiomas en español y nada.
Perdonar por el toston y espero que podais darme alguna idea.
Saludos y gracias.

Poti

Mensajes : 8
Fecha de inscripción : 22/01/2011

Ver perfil de usuario

Volver arriba Ir abajo

Re: Ayuda para poder reproducir este MKV

Mensaje  Poti el Jue Sep 13, 2012 4:10 pm

Nadie me puede ayudar ?

Grácias y saludos.

Poti

Mensajes : 8
Fecha de inscripción : 22/01/2011

Ver perfil de usuario

Volver arriba Ir abajo

Re: Ayuda para poder reproducir este MKV

Mensaje  fcojrovira el Jue Sep 13, 2012 8:52 pm

Hola.
A mi me pasó lo mismo este verano con una copia de seguridad de una película.
Lo que probé fué, mediante un programa convertidor de video, convertir el archivo MKV, al mismo formato MKV.
A mi me ha funcionado, el volumen lo tengo que poner más fuerte, pero he podido ver la película, con calidad perfecta.
Un saludo.
avatar
fcojrovira

Mensajes : 43
Fecha de inscripción : 19/02/2010
Localización : Mallorca

Ver perfil de usuario

Volver arriba Ir abajo

Re: Ayuda para poder reproducir este MKV

Mensaje  Poti el Vie Sep 14, 2012 8:39 pm

Lo probaré.
Gracias y saludos.

Poti

Mensajes : 8
Fecha de inscripción : 22/01/2011

Ver perfil de usuario

Volver arriba Ir abajo

Re: Ayuda para poder reproducir este MKV

Mensaje  Novatin83 el Sáb Sep 22, 2012 9:54 pm

Hola Poti,
te voy a explicar lo que hago yo y ya no he vuelto a tener problemas con ningún mkv.

Descargate, si no lo tienes aún,el Mkvtoolnix, lo instalas y haces lo siguiente:

Abres el mkvmerge GUI(que es una de las aplicaciones del mkvtoolnix) y cargas el fichero que quieras:



te quedará algo así,



Vete a la pestaña "Opciones adicionales" que está marcada y selecciona con el ratón cada uno de los ficheros que tengas en el apartado "Pistas, capítulos y etiquetas" y en la opción "Compresión" selecciona "Ninguno" igual que esta en la imagen.



Una vez que lo hayas hecho en todos los ficheros (si quieres cambiar el nombre o un destino diferente del fichero de salida, puedes hacerlo), solo tienes que pulsar en "Iniciar multiplexado", tal y como se muestra en la siguiente imagen



y te aparecera la pantalla de progreso de multiplexado;



y en poco más de 2 minutos tendras el nuevo mkv que espero no te de ningún problema.

Un saludo




avatar
Novatin83

Mensajes : 153
Fecha de inscripción : 27/08/2010
Localización : Madrid

Ver perfil de usuario

Volver arriba Ir abajo

Re: Ayuda para poder reproducir este MKV

Mensaje  fcojrovira el Mar Sep 25, 2012 5:51 pm

Gracias. Yo también lo voy a probar ya que con mi sistema, se tarda en recodificar una peli HD1080 de varios gigas, varias horas.
Un saludo.
avatar
fcojrovira

Mensajes : 43
Fecha de inscripción : 19/02/2010
Localización : Mallorca

Ver perfil de usuario

Volver arriba Ir abajo

Re: Ayuda para poder reproducir este MKV

Mensaje  Poti el Vie Sep 28, 2012 7:13 pm

Gracias, probado y funcionando.
Saludos.

Poti

Mensajes : 8
Fecha de inscripción : 22/01/2011

Ver perfil de usuario

Volver arriba Ir abajo

Re: Ayuda para poder reproducir este MKV

Mensaje  Contenido patrocinado


Contenido patrocinado


Volver arriba Ir abajo

Volver arriba

- Temas similares

 
Permisos de este foro:
No puedes responder a temas en este foro.